Details for this torrent 


The IT Crowd S01 (PSP, iPod, Zune)
Type:
Video > Handheld
Files:
6
Size:
656.27 MiB (688149334 Bytes)

Info:
IMDB
Spoken language(s):
English
Tag(s):
The IT Crowd the it crowd UK show PiZ sitcom funny british PSP iPod iPod Touch iPhone Zune handheld x264 h264

Uploaded:
2010-08-10 01:11:13 GMT
By:
The_Day_Walker Trusted

Seeders:
1
Leechers:
0
Comments
2  

Info Hash:
 
84C4B25170AE168A43C75CDC847F7E488E80A957
 




(Problems with magnets links are fixed by upgrading your torrent client!)
The IT Crowd S01 

Encoded for PSP, iPod, and Zune. 

Enjoy and please help me seed, so I can release more stuff faster! (^_^)

Show Nfo - UK comedy series about two I.T. nerds and their clueless female manager, who work in the basement of a very successful company. When they are called on for help, they are never treated with any respect at all. 

Video Specs:
Format                           : MPEG-4
Codec ID                         : M4V 
File size                        : 107 MiB
Duration                         : 23mn 38s
Overall bit rate                 : 633 Kbps
Movie name                       : The IT Crowd S01E01 - Yesterday's Jam
Encoded date                     : 2010
Writing application              : Lavf52.33.0

Video
ID                               : 1
Format                           : AVC
Format/Info                      : Advanced Video Codec
Format profile                   : [email protected]
Format settings, CABAC           : No
Format settings, ReFrames        : 1 frame
Codec ID                         : avc1
Codec ID/Info                    : Advanced Video Coding
Duration                         : 23mn 38s
Bit rate mode                    : Variable
Bit rate                         : 500 Kbps
Width                            : 320 pixels
Height                           : 240 pixels
Display aspect ratio             : 4:3
Frame rate mode                  : Constant
Frame rate                       : 29.970 fps
Color space                      : YUV
Chroma subsampling               : 4:2:0
Bit depth                        : 8 bits
Scan type                        : Progressive
Bits/(Pixel*Frame)               : 0.217
Stream size                      : 84.6 MiB (79%)

Audio
ID                               : 2
Format                           : AAC
Format/Info                      : Advanced Audio Codec
Format version                   : Version 4
Format profile                   : LC
Format settings, SBR             : No
Codec ID                         : 40
Duration                         : 23mn 36s
Bit rate mode                    : Variable
Bit rate                         : 128 Kbps
Channel(s)                       : 2 channels
Channel positions                : Front: L R
Sampling rate                    : 48.0 KHz
Stream size                      : 21.6 MiB (20%)


I have more seasons in works and a couple of movie-packs.

Comments

ty!